<?xml version="1.0" standalone="no"?>
<!DOCTYPE svg PUBLIC "-//W3C//DTD SVG 1.1//EN" "http://www.w3.org/Graphics/SVG/1.1/DTD/svg11.dtd" >
<svg xmlns="http://www.w3.org/2000/svg">
<metadata>
<json>
<![CDATA[
{
	"fontFamily": "WooCommerce",
	"fontURL": "https://woocommerce.com",
	"designer": "James Koster",
	"designerURL": "http://jameskoster.co.uk",
	"license": "SIL OFL",
	"licenseURL": "http://scripts.sil.org/cms/scripts/page.php?site_id=nrsi&id=OFL",
	"version": "Version 1.0",
	"majorVersion": 0,
	"fontId": "WooCommerce",
	"psName": "WooCommerce",
	"subFamily": "Regular",
	"fullName": "WooCommerce",
	"description": "Font generated by IcoMoon."
}
]]>
</json>
</metadata>
<defs>
<font id="WooCommerce" horiz-adv-x="1024">
<font-face units-per-em="1024" ascent="960" descent="-64" />
<missing-glyph horiz-adv-x="1024" />
<glyph unicode="&#x20;" horiz-adv-x="512" d="" />
<glyph unicode="&#xe000;" glyph-name="virtual" data-tags="virtual" d="M933.926 716.642l-421.926 243.358-192.79-110.617 429.827-233.877zM709.531 593.383l-429.827 232.296-191.21-110.617 423.506-229.136zM512 441.679l-444.049 240.198v-489.877l444.049-256 444.049 256v489.877l-444.049-240.198zM420.346 171.457c-11.062-6.321-23.704-4.741-39.506 1.58l-158.025 74.272c-15.802 7.901-28.444 18.963-39.506 34.765s-15.802 31.605-15.802 47.407c0 14.222 4.741 23.704 14.222 30.025s20.543 6.321 34.765 1.58c0 3.16-1.58 6.321-1.58 9.481 0 11.062 3.16 18.963 11.062 22.123 7.901 4.741 17.383 3.16 28.444-1.58 4.741-3.16 9.481-6.321 15.802-9.481 4.741 7.901 12.642 12.642 23.704 14.222 9.481 1.58 20.543 0 33.185-6.321 17.383-7.901 31.605-22.123 44.247-39.506s18.963-36.346 18.963-53.728c0-4.741 0-9.481-3.16-15.802 14.222-7.901 25.284-18.963 34.765-34.765 9.481-14.222 14.222-30.025 14.222-44.247 1.58-14.222-4.741-25.284-15.802-30.025z" />
<glyph unicode="&#xe001;" glyph-name="downloadable" data-tags="downloadable" d="M933.926 716.642l-421.926 243.358-192.79-110.617 429.827-233.877zM709.531 593.383l-429.827 232.296-191.21-110.617 423.506-229.136zM512 441.679l-444.049 240.198v-489.877l444.049-256 444.049 256v489.877l-444.049-240.198zM303.407 174.617l-110.617 169.086 31.605-1.58 63.21-96.395v188.049l31.605-17.383v-188.049l63.21 30.025 31.605-33.185-110.617-50.568z" />
<glyph unicode="&#xe002;" glyph-name="grouped" data-tags="grouped" d="M512 958.42l-442.469-256v-508.84l442.469-256 442.469 256v510.42l-442.469 254.42zM791.704 433.778l-52.148-28.444-121.679 66.37 55.309 31.605 118.519-69.531zM728.494 399.012l-55.309-30.025-120.099 64.79 53.728 31.605 121.679-66.37zM512 778.272l120.099-69.531-52.148-28.444-121.679 66.37 53.728 31.605zM445.63 740.346l121.679-66.37-55.309-30.025-120.099 64.79 53.728 31.605zM352.395 503.309l120.099-69.531-52.148-28.444-121.679 66.37 53.728 31.605zM286.025 465.383l121.679-66.37-55.309-30.025-120.099 64.79 53.728 31.605zM477.235 286.815l-124.84-72.691-124.84 72.691v139.062l124.84-67.951 124.84 67.951v-139.062zM387.16 560.198v139.062l124.84-67.951 124.84 67.951v-139.062l-124.84-72.691-124.84 72.691zM798.025 286.815l-124.84-72.691-124.84 72.691v139.062l124.84-67.951 124.84 67.951v-139.062z" />
<glyph unicode="&#xe003;" glyph-name="variable" data-tags="variable" d="M512 444.84l-406.123 221.235v-450.37l406.123-233.877 406.123 233.877v450.37zM728.494 604.444l170.667 91.654-387.16 224.395-176.988-102.716zM512 484.346l181.728 99.556-395.062 213.333-175.407-101.136zM921.284-21.333h-47.407v7.901h39.506v17.383h7.901v-25.284zM845.432-21.333h-42.667v7.901h42.667v-7.901zM772.741-21.333h-42.667v7.901h42.667v-7.901zM701.63-21.333h-42.667v7.901h42.667v-7.901zM628.938-21.333h-42.667v7.901h42.667v-7.901zM556.247-21.333h-42.667v7.901h42.667v-7.901zM483.556-21.333h-42.667v7.901h42.667v-7.901zM410.864-21.333h-42.667v7.901h42.667v-7.901zM339.753-21.333h-42.667v7.901h42.667v-7.901zM267.062-21.333h-42.667v7.901h42.667v-7.901zM194.37-21.333h-42.667v7.901h42.667v-7.901zM121.679-21.333h-20.543v31.605h7.901v-23.704h12.642v-7.901zM921.284 32.395h-7.901v42.667h7.901v-42.667zM109.037 38.716h-7.901v42.667h7.901v-42.667zM921.284 105.086h-7.901v42.667h7.901v-42.667zM109.037 109.827h-7.901v42.667h7.901v-42.667zM921.284 176.198h-7.901v42.667h7.901v-42.667zM109.037 182.519h-7.901v42.667h7.901v-42.667zM921.284 248.889h-7.901v42.667h7.901v-42.667zM109.037 255.21h-7.901v42.667h7.901v-42.667zM921.284 321.58h-7.901v42.667h7.901v-42.667zM109.037 327.901h-7.901v42.667h7.901v-42.667zM921.284 394.272h-7.901v42.667h7.901v-42.667zM109.037 400.593h-7.901v42.667h7.901v-42.667zM921.284 466.963h-7.901v42.667h7.901v-42.667zM109.037 471.704h-7.901v42.667h7.901v-42.667zM921.284 539.654h-7.901v42.667h7.901v-42.667zM109.037 544.395h-7.901v44.247h7.901v-44.247zM921.284 610.765h-7.901v42.667h7.901v-42.667zM109.037 617.086h-7.901v42.667h7.901v-42.667zM921.284 683.457h-7.901v42.667h7.901v-42.667zM109.037 689.778h-7.901v42.667h7.901v-42.667zM921.284 756.148h-7.901v42.667h7.901v-42.667zM109.037 762.469h-7.901v42.667h7.901v-42.667zM921.284 828.84h-7.901v42.667h7.901v-42.667zM109.037 835.16h-7.901v42.667h7.901v-42.667zM921.284 901.531h-7.901v12.642h-23.704v6.321h30.025v-18.963zM109.037 906.272h-7.901v14.222h36.346v-7.901h-28.444v-6.321zM862.815 914.173h-42.667v6.321h42.667v-6.321zM790.123 914.173h-42.667v6.321h42.667v-6.321zM717.432 914.173h-42.667v6.321h42.667v-6.321zM644.741 914.173h-42.667v6.321h42.667v-6.321zM573.63 914.173h-42.667v6.321h42.667v-6.321zM500.938 914.173h-42.667v6.321h42.667v-6.321zM428.247 914.173h-42.667v6.321h42.667v-6.321zM355.556 914.173h-42.667v6.321h42.667v-6.321zM282.864 914.173h-42.667v6.321h42.667v-6.321zM210.173 914.173h-42.667v6.321h42.667v-6.321zM140.642 917.333c0-19.2-15.565-34.765-34.765-34.765s-34.765 15.565-34.765 34.765c0 19.2 15.565 34.765 34.765 34.765s34.765-15.565 34.765-34.765zM140.642-21.333c0-19.2-15.565-34.765-34.765-34.765s-34.765 15.565-34.765 34.765c0 19.2 15.565 34.765 34.765 34.765s34.765-15.565 34.765-34.765zM105.877 394.272c-22.123 0-41.086 18.963-41.086 41.086s18.963 41.086 41.086 41.086c22.123 0 41.086-18.963 41.086-41.086s-18.963-41.086-41.086-41.086zM105.877 462.222c-14.222 0-26.864-12.642-26.864-26.864s12.642-26.864 26.864-26.864 26.864 12.642 26.864 26.864-12.642 26.864-26.864 26.864zM918.123 394.272c-22.123 0-41.086 18.963-41.086 41.086s18.963 41.086 41.086 41.086 41.086-18.963 41.086-41.086c0-22.123-17.383-41.086-41.086-41.086zM918.123 462.222c-14.222 0-26.864-12.642-26.864-26.864s12.642-26.864 26.864-26.864 26.864 12.642 26.864 26.864-11.062 26.864-26.864 26.864zM952.889 917.333c0-19.2-15.565-34.765-34.765-34.765s-34.765 15.565-34.765 34.765c0 19.2 15.565 34.765 34.765 34.765s34.765-15.565 34.765-34.765zM512 876.247c-22.123 0-41.086 18.963-41.086 41.086s18.963 41.086 41.086 41.086c22.123 0 41.086-18.963 41.086-41.086s-18.963-41.086-41.086-41.086zM512 944.198c-14.222 0-26.864-12.642-26.864-26.864s12.642-26.864 26.864-26.864c14.222 0 26.864 12.642 26.864 26.864s-12.642 26.864-26.864 26.864zM512-62.42c-22.123 0-41.086 18.963-41.086 41.086s18.963 41.086 41.086 41.086c22.123 0 41.086-18.963 41.086-41.086s-18.963-41.086-41.086-41.086zM512 5.531c-14.222 0-26.864-12.642-26.864-26.864s12.642-26.864 26.864-26.864c14.222 0 26.864 12.642 26.864 26.864s-12.642 26.864-26.864 26.864zM952.889-21.333c0-19.2-15.565-34.765-34.765-34.765s-34.765 15.565-34.765 34.765c0 19.2 15.565 34.765 34.765 34.765s34.765-15.565 34.765-34.765z" />
<glyph unicode="&#xe004;" glyph-name="contract" data-tags="contract" d="M511.984-63.952c282.992 0 512 228.96 512 511.904 0 283.024-229.008 512-512 512-283.024 0-511.952-228.96-511.952-512 0-282.944 228.912-511.904 511.952-511.904zM511.984 0.032c-247.472 0-447.936 200.528-447.936 447.936 0 247.472 200.448 448.032 447.936 448.032 247.424 0 447.984-200.528 447.984-448.032-0.016-247.408-200.544-447.936-447.984-447.936zM322.096 437.44v-51.2h82.496l-89.536-96.704c-11.392-11.392-10-34.112 2.832-48.336 12.784-12.832 29.872-14.208 42.624-2.832l89.584 96.656v-76.752h51.248v179.168h-179.248zM706.144 463.088v51.152h-86.752l89.584 95.264c11.392 11.392 9.952 31.328-2.832 45.504-12.864 12.832-28.528 14.208-39.904 1.44l-88.096-93.872 0.016 79.664h-51.248v-179.152h179.232z" />
<glyph unicode="&#xe005;" glyph-name="expand" data-tags="expand" d="M524.768 639.984v-51.2h82.496l-236.080-233.232v79.616h-51.152v-179.152h179.152v51.2h-86.72l240.304 230.416v-76.8h51.248v179.152h-179.248zM511.984-63.952c282.992 0 512 228.96 512 511.904 0 283.024-229.008 512-512 512-283.024 0-511.952-228.96-511.952-512 0-282.944 228.912-511.904 511.952-511.904zM511.984 0.032c-247.472 0-447.936 200.528-447.936 447.936 0 247.472 200.448 448.032 447.936 448.032 247.424 0 447.984-200.528 447.984-448.032-0.016-247.408-200.544-447.936-447.984-447.936z" />
<glyph unicode="&#xe006;" glyph-name="simple" data-tags="simple" d="M512 441.679l-444.049 240.198v-489.877l444.049-256 444.049 256v489.877zM749.037 615.506l184.889 101.136-421.926 243.358-192.79-110.617zM512 485.926l197.531 107.457-429.827 232.296-191.21-110.617z" />
<glyph unicode="&#xe007;" glyph-name="plus" data-tags="plus" d="M268.88 486.464v-76.848h204.752v-204.752h76.848l-0.016 204.768h204.752v76.848l-204.752-0.016v204.752h-76.848v-204.752h-204.736zM0.048 448.048c0-283.024 228.96-512 512-512 282.944 0 511.904 228.96 511.904 512 0 282.944-228.96 511.904-511.904 511.904-283.040 0-512-228.96-512-511.904zM64.032 448.048c0 247.392 200.528 447.936 448.032 447.936 247.392 0 447.936-200.528 447.936-447.936 0-247.472-200.528-448.032-447.936-448.032-247.504 0.016-448.032 200.544-448.032 448.032z" />
<glyph unicode="&#xe008;" glyph-name="right" data-tags="right" d="M551.856 243.168l136.48 140.816 34.16 35.552 17.040 18.512-179.152 189.152-51.2-52.688 82.496-88.144h-246.016c-28.48 0-51.248-22.72-51.248-51.2s22.768-51.2 51.248-51.2h243.184l-86.8-89.632 49.808-51.168zM512.048-63.952c282.944 0 511.904 228.96 511.904 511.904 0 283.024-228.96 512-511.904 512-283.040 0-512-228.96-512-511.984 0-282.96 228.96-511.92 512-511.92zM512.048 0.032c-247.472 0-448.032 200.528-448.032 447.936 0 247.472 200.528 448.032 448.032 448.032 247.392 0 447.936-200.528 447.936-448.032-0.016-247.408-200.544-447.936-447.936-447.936z" />
<glyph unicode="&#xe009;" glyph-name="up" data-tags="up" d="M716.848 487.808l-140.816 136.528-35.552 34.064-18.512 17.136-189.168-179.168 52.688-51.296 88.144 82.496v-246c0-28.432 22.72-51.2 51.2-51.2s51.2 22.768 51.2 51.2v243.184l89.632-86.704 51.184 49.76zM1023.952 447.968c0 283.024-228.96 512-511.904 512-283.040-0.016-512-228.976-512-512 0-282.944 228.96-511.904 512-511.904 282.944-0.016 511.904 228.944 511.904 511.904zM959.968 447.968c0-247.392-200.528-447.936-447.936-447.936-247.472 0-448.032 200.528-448.032 447.936 0 247.472 200.528 448.032 448.032 448.032 247.408-0.032 447.936-200.56 447.936-448.032z" />
<glyph unicode="&#xe00a;" glyph-name="down" data-tags="down" d="M307.168 408.192l140.816-136.528 35.552-34.064 18.512-17.136 189.152 179.168-52.688 51.296-88.144-82.496v246c0 28.432-22.72 51.2-51.2 51.2s-51.2-22.768-51.2-51.2v-243.184l-89.632 86.704-51.168-49.76zM0.048 448.048c0-283.024 228.96-512 511.904-512 283.024 0 512 228.96 512 512 0 282.944-228.96 511.904-512 511.904-282.944 0-511.904-228.96-511.904-511.904zM64.032 448.048c0 247.392 200.528 447.936 447.936 447.936 247.472 0 448.032-200.528 448.032-447.936 0-247.472-200.528-448.032-448.032-448.032-247.408 0.016-447.936 200.544-447.936 448.032z" />
<glyph unicode="&#xe00b;" glyph-name="left" data-tags="left" d="M472.192 652.848l-136.528-140.816-34.064-35.552-17.136-18.512 179.152-189.152 51.296 52.688-82.496 88.144h246c28.432 0 51.2 22.72 51.2 51.2s-22.768 51.2-51.2 51.2h-243.184l86.704 89.632-49.744 51.168zM512.048 959.952c-283.040 0-512-228.96-512-511.904 0-283.024 228.96-512 512-512 282.944 0 511.904 228.96 511.904 512 0 282.944-228.96 511.904-511.904 511.904zM512.048 895.968c247.392 0 447.936-200.528 447.936-447.936 0-247.472-200.528-448.032-447.936-448.032-247.472 0-448.032 200.528-448.032 448.032 0.016 247.408 200.544 447.936 448.032 447.936z" />
<glyph unicode="&#xe00c;" glyph-name="image" data-tags="image" d="M844.736 115.2l-255.904 255.952-179.248-179.152-76.752 76.8-153.6-153.6 665.504-0.016zM281.632 473.6c0-42.672 34.16-76.848 76.752-76.848 42.72 0 76.848 34.16 76.848 76.848 0 42.592-34.112 76.752-76.848 76.752-42.592 0-76.752-34.16-76.752-76.752zM947.168 703.952v-691.152l-870.336 0.016v691.152l870.336-0.016zM1023.984 959.952h-1023.952v-1023.904h948.528c24.208 0 34.16 8.464 49.76 24.16 17.136 15.648 25.648 38.432 25.648 61.104v938.64z" />
<glyph unicode="&#xe00d;" glyph-name="link" data-tags="link" d="M752.352 878.896c-52.688 51.2-137.952 51.2-190.544-1.392l-479.312-479.312c-52.576-52.592-52.576-137.856-1.392-190.544l17.040-17.040 66.832 68.224-44.064 44.064 536.16 536.192 44.064-44.064 68.224 66.832-17.008 17.040zM254.608 34.144l17.040-17.040c52.688-51.2 137.952-51.2 190.544 1.392l479.312 479.312c52.592 52.592 52.592 137.872 1.392 190.544l-17.040 17.040-66.832-68.224 44.064-44.064-536.16-536.176-44.064 44.064-68.256-66.848zM992.656 950c-12.784 12.832-32.72 12.832-45.504 1.44l-312.848-312.896c-11.392-12.784-11.392-32.672 0-45.456l22.768-22.768c12.784-11.392 32.672-11.392 45.456 0l312.912 312.832c11.392 12.784 11.392 32.72-1.44 45.504l-21.344 21.344zM366.928 325.696c-12.784 11.392-32.672 11.392-45.456 0l-312.912-312.832c-11.392-12.784-11.392-32.72 1.44-45.504l21.344-21.344c12.784-12.832 32.72-12.832 45.504-1.44l312.848 312.896c11.392 12.784 11.392 32.672 0 45.456l-22.768 22.768z" />
<glyph unicode="&#xe00e;" glyph-name="calendar" data-tags="calendar" d="M358.384 524.8l-76.752-76.8h76.752v-230.4l-76.752 0.016v-51.152h204.752v51.152h-76.8l-0.016 307.184h-51.184zM588.832 524.8c-28.528 0-51.2-22.768-51.2-51.152v-256.048c0-28.384 22.688-51.152 51.2-51.152h102.4c28.432 0 51.2 22.768 51.2 51.152l-0.016 256.048c0 28.384-22.768 51.152-51.2 51.152h-102.384zM588.832 473.648h102.4v-256.048h-102.4v256.048zM947.168 678.4v-665.552l-870.336 0.016v665.552l870.336-0.016zM1023.984 960h-1023.952v-1024h948.528c24.208 0 34.16 8.56 49.76 24.16 17.136 15.744 25.648 38.432 25.648 61.2v938.64zM755.2 857.568c21.296 0 38.384-17.088 38.384-38.384 0-21.344-17.088-38.432-38.384-38.432-21.344 0-38.432 17.088-38.432 38.432 0.016 21.296 17.088 38.384 38.432 38.384zM243.216 857.568c21.392 0 38.432-17.088 38.432-38.384 0-21.344-17.040-38.432-38.432-38.432-21.296 0-38.432 17.088-38.432 38.432 0 21.296 17.136 38.384 38.432 38.384z" />
<glyph unicode="&#xe00f;" glyph-name="processing" data-tags="processing" d="M153.284 294.716c-83.753 0-153.284 67.951-153.284 153.284 0 83.753 67.951 153.284 153.284 153.284 83.753 0 153.284-67.951 153.284-153.284 0-83.753-69.531-153.284-153.284-153.284zM512 294.716c-83.753 0-153.284 67.951-153.284 153.284 0 83.753 67.951 153.284 153.284 153.284 83.753 0 153.284-67.951 153.284-153.284 0-83.753-69.531-153.284-153.284-153.284zM870.716 294.716c-83.753 0-153.284 67.951-153.284 153.284 0 83.753 67.951 153.284 153.284 153.284 83.753 0 153.284-67.951 153.284-153.284 0-83.753-67.951-153.284-153.284-153.284z" />
<glyph unicode="&#xe010;" glyph-name="view" data-tags="view" d="M305.824 428.8c0-108.096 92.448-196.24 206.144-196.24 113.84 0 206.288 88.144 206.288 196.24 0 46.944-18.512 91.056-49.808 125.136 204.8-46.944 355.536-172.080 355.536-172.080v91.056c0 0-230.4 190.544-509.136 190.544-277.328-0.016-514.8-190.544-514.8-190.544v-91.056c0 0 150.736 120.864 352.704 170.688-28.464-34.176-46.928-76.8-46.928-123.744z" />
<glyph unicode="&#xe011;" glyph-name="status-processing" data-tags="status-processing" d="M512 960c-282.864 0-512-229.136-512-512s229.136-512 512-512c282.864 0 512 229.136 512 512s-229.136 512-512 512zM290.765 354.765c-52.148 0-94.815 42.667-94.815 94.815s42.667 94.815 94.815 94.815c52.148 0 94.815-42.667 94.815-94.815 0-53.728-42.667-94.815-94.815-94.815zM512 354.765c-52.148 0-94.815 42.667-94.815 94.815s42.667 94.815 94.815 94.815c52.148 0 94.815-42.667 94.815-94.815 0-53.728-42.667-94.815-94.815-94.815zM733.235 354.765c-52.148 0-94.815 42.667-94.815 94.815s42.667 94.815 94.815 94.815c52.148 0 94.815-42.667 94.815-94.815 0-53.728-42.667-94.815-94.815-94.815z" />
<glyph unicode="&#xe012;" glyph-name="status-pending" data-tags="status-pending" d="M512 960c-282.864 0-512-229.136-512-512s229.136-512 512-512c282.864 0 512 229.136 512 512s-229.136 512-512 512zM478.815 384.79v0c-3.16 3.16-7.901 6.321-14.222 11.062-12.642 12.642-18.963 28.444-18.963 47.407 0 1.58 0 3.16 1.58 6.321s1.58 6.321 1.58 6.321v0l64.79 320.79 64.79-320.79 202.272-213.333-301.827 142.222z" />
<glyph unicode="&#xe013;" glyph-name="status-cancelled" data-tags="status-cancelled" d="M512 960c-282.864 0-512-229.136-512-512s229.136-512 512-512c282.864 0 512 229.136 512 512s-229.136 512-512 512zM798.025 244.148l-82.173-82.173-205.432 203.852-203.852-203.852-82.173 82.173 203.852 203.852-203.852 203.852 82.173 82.173 203.852-203.852 205.432 203.852 82.173-82.173-205.432-205.432 205.432-202.272z" />
<glyph unicode="&#xe014;" glyph-name="status-refunded" data-tags="status-refunded" d="M512 960c-282.864 0-512-229.136-512-512s229.136-512 512-512c282.864 0 512 229.136 512 512s-229.136 512-512 512zM801.185 247.309h-440.889v-80.593l-159.605 120.099 159.605 120.099v-80.593h360.296v120.099l80.593 60.049v-259.16zM681.086 489.086v80.593h-360.296v-120.099l-80.593-60.049v260.741h440.889v80.593l159.605-120.099-159.605-121.679z" />
<glyph unicode="&#xe015;" glyph-name="status-completed" data-tags="status-completed" d="M512 960c-282.864 0-512-229.136-512-512s229.136-512 512-512c282.864 0 512 229.136 512 512s-229.136 512-512 512zM478.815 174.617h-86.914l-197.531 262.321 86.914 82.173 153.284-121.679 308.148 327.111 86.914-61.63-350.815-488.296z" />
<glyph unicode="&#xe016;" glyph-name="status-failed" data-tags="status-failed" d="M512 960c69.531 0 135.901-14.222 199.111-41.086s116.938-63.21 162.765-109.037c45.827-45.827 82.173-99.556 109.037-162.765s41.086-129.58 41.086-199.111-14.222-135.901-41.086-199.111-63.21-116.938-109.037-162.765-99.556-82.173-162.765-109.037c-63.21-26.864-129.58-41.086-199.111-41.086s-135.901 14.222-199.111 41.086-116.938 63.21-162.765 109.037c-45.827 45.827-82.173 99.556-109.037 162.765s-41.086 129.58-41.086 199.111 14.222 135.901 41.086 199.111c26.864 63.21 63.21 116.938 109.037 162.765s99.556 82.173 162.765 109.037c63.21 28.444 129.58 41.086 199.111 41.086zM584.691 361.086l22.123 412.444h-189.63l22.123-412.444h145.383zM578.37 146.173c15.802 14.222 23.704 34.765 23.704 61.63s-7.901 47.407-23.704 61.63c-15.802 14.222-37.926 22.123-67.951 22.123s-52.148-7.901-67.951-22.123c-15.802-14.222-23.704-34.765-23.704-61.63 0-25.284 7.901-45.827 23.704-61.63 15.802-14.222 39.506-22.123 67.951-22.123 30.025 0 52.148 6.321 67.951 22.123z" />
<glyph unicode="&#xe017;" glyph-name="check" data-tags="check" d="M0.032 418.192l294.384-290.112 35.552-34.176 18.512-17.088 675.504 665.6-78.224 76.768-598.768-590.144-270.16 264.512z" />
<glyph unicode="&#xe018;" glyph-name="query" data-tags="query" d="M550.384 348.432c91.056 15.648 140.768 76.848 140.768 176.32 0 113.84-65.472 179.2-179.152 179.2-109.536 0-172.128-59.712-179.248-166.368h51.264c7.072 78.224 46.944 115.168 128 115.168 85.312 0 127.952-42.672 127.952-128 0-71.104-28.432-110.88-89.584-123.744v8.512l-76.8-25.552v-76.752h76.8l0.016 41.216zM473.6 256.016v-76.8h76.8v76.8h-76.8zM0.016 447.968c0-282.944 228.96-511.904 512-511.904 282.944 0 511.952 228.96 511.952 511.904 0 283.024-229.008 511.984-511.952 511.984-283.040 0-512-228.96-512-511.984zM64.048 447.968c0 247.472 200.48 448 447.968 448 247.392 0 447.936-200.528 447.936-448.032 0-247.392-200.528-447.936-447.936-447.936-247.488 0.032-447.968 200.56-447.968 447.968z" />
<glyph unicode="&#xe019;" glyph-name="truck-1" data-tags="truck-1" d="M664.16 192.048c8.56 0 14.256 1.392 19.904 5.696-9.952 2.784-18.512 7.072-24.16 12.784-12.784 14.256-19.904 34.064-19.904 51.2v510.512c0 17.040 7.12 27.040 19.904 41.2 12.832 12.864 38.384 18.56 55.456 18.56h1.392l0.016 68.288c0 16.992-5.648 32.672-18.464 45.456-12.8 12.768-17.104 14.256-34.144 14.256h-588.736c-17.104 0-42.656-5.728-55.472-18.512-12.784-14.208-19.904-24.208-19.904-41.2v-638.56c0-17.136 7.12-36.944 19.904-51.2 12.832-12.784 38.384-18.464 55.456-18.464h588.752zM716.752 268.848v486.352l230.4-51.248-0.016-435.104h-230.384zM971.312 780.752l-254.56 51.248h-1.376c-17.088 0-42.624-5.696-55.456-18.56-12.784-14.16-19.904-24.16-19.904-41.2v-510.528c0-17.136 7.12-36.944 19.904-51.2 5.648-5.696 14.208-10 24.16-12.784 10-4.304 21.392-5.696 31.28-5.696h255.952c17.088 0 21.392 5.696 34.16 18.464 12.784 14.256 18.464 34.064 18.464 51.2v459.344c0 17.088-5.696 32.672-18.464 45.552-12.768 12.768-17.072 14.16-34.16 14.16zM76.8 25.632c0-49.712 39.856-89.632 89.632-89.632 49.808 0 89.632 39.904 89.632 89.632 0 49.76-39.824 89.632-89.632 89.632-49.776-0.016-89.632-39.872-89.632-89.632zM768 25.632c0-49.712 39.776-89.632 89.584-89.632s89.584 39.904 89.584 89.632c0 49.76-39.776 89.632-89.584 89.632s-89.584-39.872-89.584-89.632z" />
<glyph unicode="&#xe01a;" glyph-name="truck-2" data-tags="truck-2" d="M303.407 124.049c0-45.383-36.79-82.173-82.173-82.173s-82.173 36.79-82.173 82.173c0 45.383 36.79 82.173 82.173 82.173s82.173-36.79 82.173-82.173zM992.395 694.519h-260.741v175.407c0 17.383-14.222 31.605-31.605 31.605h-668.444c-17.383 0-31.605-14.222-31.605-31.605v-714.272c0-17.383 14.222-31.605 31.605-31.605h60.049c0 71.111 58.469 129.58 129.58 129.58s129.58-58.469 129.58-129.58h317.63c0 4.741 0 11.062 1.58 15.802 0 1.58 0 3.16 0 4.741 0 3.16 1.58 7.901 1.58 11.062 0 1.58 0 3.16 1.58 3.16 3.16 9.481 6.321 18.963 12.642 28.444 0 0 1.58 1.58 1.58 1.58 3.16 4.741 4.741 7.901 7.901 11.062 0 0 0 1.58 1.58 1.58 6.321 7.901 14.222 15.802 22.123 22.123 0 0 0 0 0 0 4.741 3.16 9.481 6.321 14.222 9.481 18.963 11.062 41.086 17.383 64.79 17.383 71.111 0 129.58-58.469 129.58-129.58h66.37c17.383 0 31.605 14.222 31.605 31.605v505.679c-1.58 22.123-15.802 36.346-33.185 36.346zM878.617 124.049c0-45.383-36.79-82.173-82.173-82.173s-82.173 36.79-82.173 82.173c0 45.383 36.79 82.173 82.173 82.173s82.173-36.79 82.173-82.173z" />
<glyph unicode="&#xe01b;" glyph-name="globe" data-tags="globe" d="M568.896 819.232h-18.432v-81.056c11.296-12.832 16.992 5.696 25.552-15.696v-49.712c0-7.12 10-11.392 14.208-11.392 25.6 0 91.056 68.224 113.744 85.264-44.016 39.856-90.96 58.32-135.072 72.592zM473.632 819.232h-24.16c-76.752-17.136-163.6-54.064-231.84-160.736v-7.12c4.304 2.88 14.256 5.696 17.088 5.696 7.072 0 7.072-2.832 8.56-5.696v-55.408c0-12.832 34.064-103.824 49.76-108.096 8.56-2.88 17.088 1.44 22.72-4.272 17.040-19.904 22.768-49.808 36.992-68.224 21.344-28.528 54.032-59.808 82.496-71.104 9.952-7.168 29.872 4.224 38.384-11.392v-89.632c0-18.512 34.112 4.272 34.112-29.904v-9.904c-4.224-18.512-25.552 2.832-34.112-18.512v-150.736c4.272-8.512 24.16-8.512 34.112-8.512 0 0 39.856-2.88 39.856 14.208 0 19.952-22.768 11.392-28.48 12.784 22.768 26.992 44.112 56.896 69.712 81.104 36.944 34.112 46.896 72.496 61.104 100.976 5.696 12.784 14.208 32.672 14.208 36.944 0 29.872-115.168 83.888-122.256 86.752h-78.272c-24.16 11.392-51.152 36.992-66.768 63.984v56.896l5.648 7.168h39.824l5.696-7.168v-55.408c1.44-4.304 14.208-11.392 18.464-11.392 5.696 0 2.88 7.072 7.12 11.392v99.488c0 15.6 35.552 36.992 39.824 39.824h55.472c4.272 0 21.344 4.272 21.344 14.16 0 21.392-29.872-5.648-39.776 5.728v54.064c0 21.296-28.528 14.16-34.16 17.040 14.208 25.6 28.432 36.992 28.432 54.064 0 7.072-2.832 9.904-5.648 11.296-10 2.88-22.768 0-31.328 7.168-9.952 7.072-32.72 18.464-34.112 35.552v56.928zM0.048 448.048c0-283.024 228.96-512 512-512 282.944 0 511.904 228.96 511.904 512 0 282.944-228.96 511.904-511.904 511.904-283.040 0-512-228.96-512-511.904zM64.032 448.048c0 247.392 200.528 447.936 448.032 447.936 247.392 0 447.936-200.528 447.936-447.936 0-247.472-200.528-448.032-447.936-448.032-247.504 0.016-448.032 200.544-448.032 448.032z" />
<glyph unicode="&#xe01c;" glyph-name="gear" data-tags="gear" d="M0.048 338.48c14.16-63.984 39.824-125.088 75.376-179.152 41.248 14.16 88.192 5.648 120.912-27.040 32.672-32.72 41.2-79.616 26.992-120.816 54.032-35.552 115.216-61.2 179.152-75.456 17.088 44.112 59.76 75.456 109.488 75.456 49.808 0 92.496-31.328 109.536-75.456 64.032 14.256 125.184 39.904 179.248 75.456-14.256 41.2-5.728 88.096 26.992 120.816 32.72 32.672 79.664 41.2 120.864 27.040 35.552 54.064 61.104 115.168 75.376 179.152-44.064 17.136-75.376 59.712-75.376 109.536s31.28 92.4 75.376 109.536c-14.256 63.984-39.824 125.088-75.376 179.152-41.2-14.16-88.144-5.648-120.864 27.040-32.72 32.72-41.248 79.616-26.992 120.816-54.096 35.536-115.248 61.184-179.28 75.44-17.040-44.112-59.712-75.456-109.536-75.456-49.712 0-92.4 31.328-109.488 75.456-63.936-14.256-125.136-39.904-179.152-75.456 14.208-41.2 5.696-88.096-26.992-120.816-32.72-32.672-79.664-41.2-120.912-27.040-35.52-54.080-61.184-115.184-75.344-179.168 44.064-17.136 75.376-59.712 75.376-109.536s-31.312-92.384-75.376-109.504zM153.6 448c0 197.68 160.784 358.4 358.352 358.4 197.728 0 358.4-160.736 358.4-358.4s-160.688-358.4-358.4-358.4c-197.568 0-358.352 160.736-358.352 358.4z" />
<glyph unicode="&#xe01d;" glyph-name="cart" data-tags="cart" d="M204.848 655.616v149.312c-1.488 21.392-10 38.432-25.648 54.064-15.6 15.648-45.456 24.16-69.616 24.16h-35.552c-22.768 0-32.768-11.392-49.808-26.992-14.224-14.208-22.784-29.856-24.176-49.76h128v-531.904c0-22.72 8.56-42.672 25.552-58.272 17.088-15.696 46.944-24.16 69.712-24.16h476.384c22.72 0 32.72 11.344 49.808 26.992 14.16 14.256 22.688 29.904 24.16 49.808h-568.848v78.192c7.072-1.44 12.784-1.44 18.464-1.44h520.512c24.16 0 95.264 12.832 112.352 29.904 17.040 15.648 28.432 31.248 39.824 55.408l127.952 294.432c0 22.72-9.904 42.624-27.040 58.272-17.040 15.648-26.992 22.768-49.76 22.768h-723.808c-5.696 0-11.392 0-18.464-1.488v-75.376h742.304l-128-307.2-614.304 0.016v233.264zM614.4 76.816c0-35.552 28.48-63.984 64.032-63.984s63.984 28.432 63.984 63.984-28.432 63.984-63.984 63.984-64.032-28.432-64.032-63.984zM102.448 76.816c0-35.552 28.432-63.984 63.984-63.984s63.984 28.432 63.984 63.984-28.432 63.984-63.984 63.984-63.984-28.432-63.984-63.984z" />
<glyph unicode="&#xe01e;" glyph-name="card" data-tags="card" d="M665.552 217.616h-255.904v76.8h255.904v-76.8zM358.448 217.616h-179.248v76.8h179.248v-76.8zM947.136 575.952h-870.336v-460.704h870.352l-0.016 460.704zM947.136 780.752h-870.336v-127.952h870.352l-0.016 127.952zM947.136 857.568c22.768 0 32.72-7.072 49.76-22.72 17.136-15.648 27.040-35.552 27.040-58.32v-652.736c0-22.768-8.512-45.552-25.552-61.152-15.696-15.6-25.648-24.16-49.808-24.16h-853.264c-22.768 0-52.592 8.56-69.712 24.16-17.040 15.568-25.552 38.352-25.552 61.12v652.736c0 22.768 8.512 41.296 25.552 56.896 15.648 15.6 46.944 24.16 69.712 24.16h851.824z" />
<glyph unicode="&#xe01f;" glyph-name="stats" data-tags="stats" d="M819.2 166.448h-76.8v435.152h76.8v-435.152zM639.952 166.448h-76.752v332.752h76.752v-332.752zM460.8 166.448h-76.752v511.952h76.752v-511.952zM281.6 166.448h-76.8v204.752h76.8v-204.752zM947.136 806.4h-870.288v-716.8h870.304l-0.016 716.8zM971.312 883.152c17.136 0 21.344-1.44 34.16-14.208 12.784-12.784 18.512-28.48 18.512-45.504v-740.88c0-17.136-5.728-37.040-18.512-51.296-12.832-12.784-17.040-18.432-34.16-18.432l-895.856 0.032c-17.136 0-42.72 5.648-55.504 18.432-12.784 14.256-19.952 34.16-19.952 51.296l-0.016 740.832c0 17.040 7.168 27.040 19.952 41.296 12.784 12.784 38.384 18.432 55.504 18.432l895.872-0.016z" />
<glyph unicode="&#xe020;" glyph-name="star-full" data-tags="star-full" d="M511.968 934.4l157.904-321.456 354.048-51.152-255.904-248.864 59.712-351.328-315.76 164.992-315.664-164.992 59.712 351.328-255.952 248.864 354.096 51.152z" />
<glyph unicode="&#xe021;" glyph-name="star-empty" data-tags="star-empty" d="M512.048 936.96l-157.952-321.456-354.048-51.2 255.952-248.864-59.712-351.184 315.76 164.896 315.632-164.896-59.712 351.184 256 248.864-354.096 51.2-157.824 321.456zM512.048 794.752l117.952-236.080 265.952-38.432-191.968-183.456 45.552-258.832-237.472 122.304-237.568-122.304 45.552 258.832-192.048 183.456 266 38.432 118.048 236.080z" />
<glyph unicode="&#xe022;" glyph-name="up-down" data-tags="up-down" d="M511.936 955.696l-422.288-418.064h844.704l-422.416 418.064zM89.648 358.432l422.288-418.112 422.416 418.112h-844.704z" />
<glyph unicode="&#xe023;" glyph-name="reports" data-tags="reports" d="M1023.952 729.552c0 28.528-27.040 51.2-59.712 51.2h-34.16c-32.672 0-59.712-22.688-59.712-51.2v-793.552h153.6v793.552zM588.8 908.8c0 28.432-27.040 51.2-59.728 51.2h-34.112c-32.72 0-59.76-22.768-59.76-51.2v-972.784h153.6v972.784zM153.6 499.2c0 28.432-26.992 51.2-59.712 51.2h-34.128c-32.672 0-59.712-22.768-59.712-51.2v-563.2h153.552v563.2z" />
<glyph unicode="&#xe024;" glyph-name="search" data-tags="search" d="M268.832 824.832c-157.856-157.856-177.76-401.088-55.504-573.104l-5.696-4.272-184.864-186.256c-29.872-28.528-29.872-75.376-1.44-103.824s75.376-28.48 103.776 1.392l186.288 184.944 4.352 5.648c172.032-122.304 415.248-102.4 573.056 55.456 176.368 174.896 180.592 457.92 8.56 628.608-170.704 172.048-453.648 167.744-628.528-8.592zM329.936 763.68c140.816 140.816 366.928 143.648 503.376 5.696 138-136.528 135.184-362.608-5.648-503.424-140.768-140.768-366.88-143.6-503.376-5.696-137.952 136.512-135.136 362.656 5.648 503.424z" />
<glyph unicode="&#xe025;" glyph-name="search-2" data-tags="search-2" d="M411.088 628.672c-65.424-65.472-75.408-164.976-29.872-241.84-1.488-1.392-2.88-2.832-4.304-4.224l-69.664-69.712c-19.904-18.464-19.904-49.76 0-69.664s51.2-19.904 69.664 0l69.712 69.664c1.392 1.44 2.832 2.832 4.224 4.304 76.848-45.552 176.368-35.552 241.84 29.872 76.752 76.8 76.752 201.92-1.488 280.128-78.192 78.24-203.328 78.24-280.112 1.472zM455.104 584.56c52.64 52.64 139.424 52.64 192.016-1.44 54.064-52.592 54.064-139.376 1.44-192.016-52.64-54.032-139.376-52.592-193.456 0-52.576 54.080-54.016 140.832 0 193.456zM0.048 448.048c0-283.024 228.96-512 512-512 282.944 0 511.904 228.96 511.904 512 0 282.944-228.96 511.904-511.904 511.904-283.040 0-512-228.96-512-511.904zM64.032 448.048c0 247.392 200.528 447.936 448.032 447.936 247.392 0 447.936-200.528 447.936-447.936 0-247.472-200.528-448.032-447.936-448.032-247.504 0.016-448.032 200.544-448.032 448.032z" />
<glyph unicode="&#xe026;" glyph-name="user2" data-tags="user" d="M611.568 492.080c0 51.2-29.904 122.304-112.4 122.304s-112.304-56.848-112.304-118.048c0-32.672 15.6-99.536 41.2-127.952 4.272-4.272 29.904-22.768 29.904-32.72 0-14.208-4.272-9.952-9.952-14.208-31.328-71.104-230.4-41.296-230.4-163.552 0-14.208 18.464-28.48 18.464-42.624h557.456v69.616c0 99.632-214.704 65.472-246.048 150.768 56.96 66.88 64.080 99.568 64.080 156.416zM947.136 703.952v-691.104l-870.336 0.016v691.088h870.336zM1023.952 960h-1023.904v-1024h948.528c24.16 0 34.112 8.56 49.808 24.16 17.040 15.744 25.552 38.432 25.552 61.2v938.64z" />
<glyph unicode="&#xe027;" glyph-name="windows" data-tags="windows" d="M947.136 608.688v-595.84l-819.088 0.016v-76.848h824.8c21.296 0 35.552 7.168 49.808 21.344 14.208 14.208 21.296 34.16 21.296 52.64v822h-76.8v-223.312zM819.152 729.552v-588.752h-742.352v588.752h742.352zM896 960h-895.952v-896h824.848c21.296 0 29.824 7.168 44.064 21.392 14.256 14.16 27.040 38.384 27.040 58.272v816.336z" />
<glyph unicode="&#xe028;" glyph-name="note" data-tags="note" d="M947.136 703.952h-870.336v-691.104h870.352l-0.016 691.104zM1023.952 960v-938.624c0-22.768-8.512-45.456-25.552-61.2-15.696-15.6-25.648-24.16-49.808-24.16h-948.544v1023.984h1023.904z" />
<glyph unicode="&#xe029;" glyph-name="east" data-tags="east" d="M989.856 533.408l-416.736 379.696c-45.456 58.32-92.4 58.32-137.952 0v-237.472h-356.912c-42.624 0-78.192-42.672-78.192-96.752v-268.784c0-52.592 34.112-95.264 76.8-95.264h358.304v-226.096c45.552-56.848 92.496-69.712 137.952-12.784l416.72 381.072c45.472 58.336 45.472 118.064 0.016 176.384zM76.864 445.232v153.6h435.104v255.952l460.8-409.552-460.8-409.552v255.936h-435.104v153.616z" />
<glyph unicode="&#xe02a;" glyph-name="north" data-tags="north" d="M426.624 925.824l-379.792-418.112c-58.24-44.064-58.24-91.008 0-136.48h237.568v-356.912c0-42.72 42.592-78.272 96.656-78.272h268.784c52.64 0 95.264 34.16 95.264 76.8v358.384h226.096c56.944 45.456 69.712 92.4 12.864 136.48l-381.168 418.112c-58.32 45.552-118.032 45.552-176.272 0zM514.704 12.848h-153.552v435.152h-256l409.552 460.784 409.648-460.8-256.032 0.016v-435.152h-153.616z" />
<glyph unicode="&#xe02b;" glyph-name="attributes" data-tags="attributes" d="M230.4 588.752v-76.752h307.2v76.752h-307.2zM332.8 435.152v-127.952h460.752v127.952h-460.752zM947.136 793.552v-691.152h-870.336v691.152h870.336zM971.312 870.336h-895.888c-17.088 0-42.624-5.696-55.456-18.464-12.8-14.256-19.92-24.16-19.92-41.248v-715.264c0-17.136 7.12-37.040 19.904-51.296 12.832-12.784 38.384-18.432 55.456-18.432h895.904c17.088 0 21.392 5.648 34.16 18.432 12.784 14.256 18.464 34.16 18.464 51.296l0.016 715.264c0 17.088-5.696 32.72-18.464 45.504-12.784 12.832-17.088 14.208-34.176 14.208z" />
<glyph unicode="&#xe02c;" glyph-name="inventory" data-tags="inventory" d="M947.136 89.6h-870.336v793.552h-1.376c-17.088 0-42.624-5.648-55.456-18.432-12.8-14.256-19.92-24.24-19.92-41.296v-740.88c0-17.136 7.12-37.040 19.904-51.296 12.832-12.784 38.384-18.432 55.456-18.432h895.904c17.088 0 21.392 5.648 34.16 18.432 12.784 14.256 18.464 34.16 18.464 51.296v7.024l-76.8 0.016zM870.352 371.2c0-42.624 34.16-76.8 76.8-76.8 42.72 0 76.8 34.16 76.8 76.8s-34.064 76.8-76.8 76.8c-42.64 0-76.8-34.16-76.8-76.8zM908.784 371.2c0 21.344 17.040 38.384 38.384 38.384s38.384-17.040 38.384-38.384-17.040-38.384-38.384-38.384-38.384 17.056-38.384 38.384zM520.512 642.848c12.832-24.16 38.384-41.248 68.272-41.248 31.28 0 56.848 18.464 69.712 44.064 130.816-28.432 199.072-137.952 233.232-221.84 9.904 11.392 25.552 19.904 41.2 22.768-36.944 82.4-119.44 214.704-268.784 248.864-8.512 34.064-38.384 59.712-75.376 59.712-36.944 0-68.272-27.040-75.376-61.2-170.688-49.76-251.744-258.784-278.736-351.264-32.72-9.904-55.504-38.336-55.504-73.888 0-42.672 34.16-76.8 76.848-76.8 42.592 0 76.752 34.112 76.752 76.8 0 29.872-17.040 55.408-42.672 68.224 31.328 106.704 99.616 264.56 230.432 305.808zM550.368 678.4c0 21.344 17.088 38.384 38.432 38.384 21.296 0 38.384-17.040 38.384-38.384s-17.088-38.384-38.384-38.384c-21.344 0.016-38.432 17.040-38.432 38.384zM217.632 268.848c0 21.296 17.088 38.336 38.432 38.336 21.296 0 38.384-17.040 38.384-38.336 0-21.392-17.088-38.432-38.384-38.432-21.344 0.016-38.432 17.040-38.432 38.432z" />
<glyph unicode="&#xe02d;" glyph-name="mail" data-tags="mail" d="M947.136 752.32v-662.72h-870.336v662.72l386.816-386.816c27.040-27.040 69.712-27.040 96.752 0l386.768 386.816zM119.488 806.4h785.024l-359.824-361.264c-18.464-17.040-46.896-17.040-65.424 0l-359.776 361.264zM971.312 883.152h-895.888c-17.088 0-42.624-5.648-55.456-18.432-12.8-14.256-19.92-24.24-19.92-41.296v-740.88c0-17.136 7.12-37.040 19.904-51.296 12.832-12.784 38.384-18.432 55.456-18.432h895.904c17.088 0 21.392 5.648 34.16 18.432 12.784 14.256 18.464 34.16 18.464 51.296l0.016 740.88c0 17.040-5.696 32.72-18.464 45.504s-17.088 14.224-34.176 14.224z" />
<glyph unicode="&#xe02e;" glyph-name="south" data-tags="south" d="M597.232-29.84l379.696 416.624c58.32 45.552 58.32 92.496 0 138h-237.488v356.944c0 42.72-42.688 78.272-95.264 78.272h-268.832c-54.032 0-96.656-34.16-96.656-76.848v-358.352h-224.704c-58.32-45.504-71.104-92.448-12.832-138l379.728-416.624c58.288-45.552 118.016-45.552 176.352-0.016zM508.992 883.152h153.6v-435.152h256.048l-409.648-460.784-409.504 460.784h256v435.152h153.504z" />
<glyph unicode="&#xe02f;" glyph-name="west" data-tags="west" d="M34.16 362.768l416.672-379.696c45.504-58.32 92.448-58.32 137.952 0v237.472h356.96c42.624 0 78.192 42.72 78.192 96.704v267.392c0 53.984-34.064 96.704-76.8 96.704h-358.336v224.704c-45.504 58.272-92.448 71.104-137.952 12.784l-416.688-379.696c-45.504-58.32-45.504-118.032 0-176.368zM947.136 450.944v-153.6h-435.184v-255.952l-460.704 409.552 460.704 409.552v-255.952h435.2l-0.016-153.6z" />
<glyph unicode="&#xe030;" glyph-name="share" data-tags="share" d="M943.632 883.184v-229.008l76.8-56.848v302.848c0 17.136-5.696 32.72-18.512 45.552-12.784 12.784-17.040 14.256-34.112 14.256h-896c-16.992 0-42.592-5.696-55.36-18.512-12.88-14.256-19.968-24.16-19.968-41.296v-894.464c0-17.040 7.072-36.944 19.952-51.2 12.784-12.784 38.384-18.464 55.36-18.464h896c17.088 0 21.344 5.696 34.112 18.464 12.832 14.256 18.512 34.16 18.512 51.2l0.016 292.944-76.8-56.848v-228.96h-870.352v870.336h870.352zM278.080 396.784h460.704v-128.016l288.72 179.2-288.72 179.184v-127.968h-358.304c-66.848 0-102.4-35.552-102.4-102.4z" />
<glyph unicode="&#xe031;" glyph-name="refresh" data-tags="refresh" d="M922.288 332.832c2.88 8.512 4.272 17.040 5.696 25.6l-75.408 18.464c-1.392-8.512-2.88-17.088-5.696-24.16-52.544-206.24-263.024-331.376-469.264-278.736-204.8 54.032-329.872 264.48-275.904 469.28 52.688 206.224 263.12 331.36 469.312 277.344 115.168-28.48 204.752-108.096 251.696-209.104l-110.88-65.376c-2.88-14.256 4.224-28.432 18.432-31.28l199.104-51.2c14.208-2.88 28.48 4.272 31.328 18.512l51.152 199.072c2.832 14.256-4.224 28.432-18.464 31.28l-103.776-61.104c-56.896 116.56-163.552 208.976-300.064 244.528-247.488 64.048-499.232-85.344-563.216-332.768-63.968-247.472 85.312-499.184 332.816-563.104 247.424-64.080 499.104 85.312 563.136 332.752z" />
<glyph unicode="&#xe032;" glyph-name="navigation" data-tags="navigation" d="M48.384 857.568c-26.992 0-48.336-21.36-48.336-46.96v-8.464c0-25.648 21.344-46.944 48.336-46.944h927.232c27.040 0 48.336 21.296 48.336 46.944v8.464c0 25.6-21.296 46.944-48.336 46.944l-927.232 0.016zM48.384 499.2c-26.992 0-48.336-21.344-48.336-46.944v-8.512c0-25.6 21.344-46.944 48.336-46.944h927.232c27.040 0 48.336 21.344 48.336 46.944v8.512c0 25.6-21.296 46.944-48.336 46.944h-927.232zM48.384 140.8c-26.992 0-48.336-21.28-48.336-46.928v-8.464c0-25.6 21.344-46.944 48.336-46.944l927.232-0.016c27.040 0 48.336 21.344 48.336 46.944v8.464c0 25.648-21.296 46.944-48.336 46.944l-927.232 0.016z" />
<glyph unicode="&#xe033;" glyph-name="on-hold" data-tags="on-hold" d="M512 960c-282.864 0-512-229.136-512-512s229.136-512 512-512c282.864 0 512 229.136 512 512s-229.136 512-512 512zM733.235 354.765h-442.469c-52.148 0-94.815 42.667-94.815 94.815s42.667 94.815 94.815 94.815h442.469c52.148 0 94.815-42.667 94.815-94.815s-42.667-94.815-94.815-94.815z" />
<glyph unicode="&#xe034;" glyph-name="external" data-tags="external" d="M749.037 615.506l184.889 101.136-421.926 243.358-192.79-110.617zM512 485.926l197.531 107.457-429.827 232.296-191.21-110.617zM512 441.679l-444.049 240.198v-489.877l444.049-256 444.049 256v489.877l-444.049-240.198zM366.617 169.877c0-9.481-6.321-12.642-15.802-6.321l-142.222 82.173c-9.481 4.741-15.802 15.802-15.802 25.284v142.222c0 9.481 6.321 12.642 15.802 6.321l110.617-63.21-31.605-12.642-63.21 36.346v-110.617l110.617-63.21v47.407l31.605 12.642v-96.395zM414.025 222.025l-31.605 34.765v48.988l-88.494-37.926-22.123 34.765 96.395 41.086-64.79 37.926-15.802 41.086 126.42-72.691v-128z" />
<glyph unicode="&#xe035;" glyph-name="expand-2" data-tags="expand-2" d="M571.664 837.952h193.632l-210.112-226.96c-26.736-26.72-23.472-80.064 6.64-113.488 29.968-30.064 70.096-33.296 100.048-6.624l210.24 226.848v-180.128h120.256v420.512h-420.704v-120.16zM452.256 386.448c-30.176 30.080-66.944 33.36-93.632 3.376l-206.736-220.32v186.976h-120.272v-420.48h420.672v120.080h-203.584l210.208 223.568c26.704 26.736 23.36 73.504-6.656 106.8z" />
<glyph unicode="&#xe036;" glyph-name="contract-2" data-tags="contract-2" d="M66.272 303.072h193.632l-210.128-226.96c-26.736-26.72-23.472-80.064 6.656-113.472 29.968-30.080 70.080-33.312 100.032-6.624l210.24 226.848v-180.128h120.256v420.496h-420.688v-120.16zM967.616 933.84c-30.192 30.080-66.96 33.36-93.648 3.36l-206.736-220.304v186.976h-120.256v-420.48h420.672v120.064l-203.616-0.016 210.224 223.584c26.72 26.736 23.36 73.52-6.64 106.816z" />
<glyph unicode="&#xe037;" glyph-name="phone" data-tags="phone" d="M251.488-54.704c-32.48 0-63.040 12.528-86.192 35.264l-127.744 112.304c-47.936 47.936-47.936 125.936 0 173.872l84.224 84.272c23.248 23.232 54.128 36 86.96 36 32.848 0 63.712-12.784 86.928-35.984-0.016 0.032-0.032 0.032-0.032 0.032 0.144 0 8.352-6.448 20.32-6.448 12.592 0 21.040 7.152 21.408 7.456l264.448 264.512c-0.016-0.016-0.032-0.032-0.048-0.032-0.112 0 6.464 8.256 6.464 20.32 0 7.664-2.688 13.824-4.928 17.6l-2.080 2.080c-47.936 47.936-47.936 125.936 0 173.872l84.272 84.272c23.216 23.216 54.080 36.016 86.928 36.016 32.48 0 63.040-12.512 86.192-35.264l127.76-112.304c23.248-23.232 36.032-54.112 36.032-86.944s-12.8-63.728-36.032-86.944l-647.92-647.936c-23.232-23.216-54.096-36.016-86.96-36.016zM80.624 137.2l127.632-112.208c23.136-23.12 63.392-23.104 86.512 0l647.936 647.936c11.552 11.552 17.92 26.928 17.92 43.248 0 16.016-6.128 31.136-17.28 42.608l-127.632 112.208c-23.152 23.12-63.392 23.104-86.512 0.016l-84.256-84.272c-11.552-11.552-17.936-26.912-17.936-43.248s6.368-31.696 17.936-43.248l8.048-8.768c7.76-11.312 17.056-29.952 17.072-54.576 0-37.024-21.472-60.8-23.92-63.376l-266.224-266.208c-3.216-3.056-27.008-24.496-63.984-24.496-36.992 0-60.752 21.424-63.328 23.872-12.176 12.176-27.536 18.528-43.872 18.528s-31.712-6.368-43.264-17.936l-84.24-84.24c-23.616-23.616-23.824-61.936-0.608-85.84z" />
<glyph unicode="&#xe038;" glyph-name="user" data-tags="user" d="M1023.952 0.064h-1023.904v29.808c0 12.192 0.448 24.448 0.912 36.688 0.432 11.52 0.88 23.040 0.88 34.56 0 142.928 134.192 179.824 242.016 209.456 67.552 18.56 131.376 36.112 149.376 72.064 3.072 6.112 6.24 12.912 8.64 18.208-3.696 5.024-12.592 14.624-20.592 23.264-4.336 4.672-9.088 9.776-14.192 15.472-24.784 27.456-82.4 104.56-82.4 227.152 0 140.080 83.328 227.088 217.488 227.088 142.896 0 217.632-117.808 217.632-234.208 0-98.752-14.48-159.616-101.472-265.52 28.288-41.776 104.72-60.88 178.88-79.424 106.256-26.576 226.72-56.688 226.72-168.432v-146.176zM60.352 59.648h903.984v86.576c0 60.816-68.592 82.336-181.552 110.592-97.264 24.336-197.808 49.472-227.808 131.104l-6 16.336 11.28 13.248c90.944 106.832 99.952 153.52 99.952 242.112 0 60.4-33.024 174.608-158.032 174.608-137.376 0-157.872-104.944-157.872-167.488 0-101.92 46.88-164.896 67.056-187.248 4.896-5.44 9.488-10.368 13.632-14.848 22.16-23.872 38.144-41.12 38.144-66.432v-6.208l-2.464-5.696c0 0-7.296-16.784-14.144-30.4-29.904-59.648-106.144-80.624-186.864-102.816-119.744-32.912-198.208-61.28-198.208-151.984 0-12.24-0.464-24.544-0.928-36.8-0.064-1.568-0.112-3.104-0.176-4.656z" />
<glyph unicode="&#xe039;" glyph-name="status" data-tags="status" d="M5.264 448.048c0-283.024 228.96-512 511.904-512 283.024 0 512 228.96 512 512 0 282.928-228.96 511.904-512 511.904-282.944 0-511.904-228.96-511.904-511.904zM69.248 448.048c0 247.376 200.528 447.936 447.936 447.936 247.488 0 448.032-200.528 448.032-447.936 0-247.472-200.528-448.032-448.032-448.032-247.408 0.016-447.936 200.544-447.936 448.032z" />
<glyph unicode="&#xe03a;" glyph-name="user-fill" data-tags="user-fill" d="M1023.952 0.064h-1023.904v29.808c0 12.192 0.448 24.448 0.912 36.688 0.432 11.52 0.88 23.040 0.88 34.56 0 142.928 134.192 179.824 242.016 209.456 67.552 18.56 131.376 36.112 149.376 72.064 3.072 6.112 6.24 12.912 8.64 18.208-3.696 5.024-12.592 14.624-20.592 23.264-4.336 4.672-9.088 9.776-14.192 15.472-24.784 27.456-82.4 104.56-82.4 227.152 0 140.080 83.328 227.088 217.488 227.088 142.896 0 217.632-117.808 217.632-234.208 0-98.752-14.48-159.616-101.472-265.52 28.288-41.776 104.72-60.88 178.88-79.424 106.256-26.576 226.72-56.688 226.72-168.432v-146.176z" />
<glyph unicode="&#xe03b;" glyph-name="phone-fill" data-tags="phone-fill" d="M251.488-54.704c-32.48 0-63.040 12.528-86.192 35.264l-127.744 112.304c-47.936 47.936-47.936 125.936 0 173.872l84.224 84.272c23.248 23.232 54.128 36 86.96 36 32.848 0 63.712-12.784 86.928-35.984-0.016 0.032-0.032 0.032-0.032 0.032 0.144 0 8.352-6.448 20.32-6.448 12.592 0 21.040 7.152 21.408 7.456l264.448 264.512c-0.016-0.016-0.032-0.032-0.048-0.032-0.112 0 6.464 8.256 6.464 20.32 0 7.664-2.688 13.824-4.928 17.6l-2.080 2.080c-47.936 47.936-47.936 125.936 0 173.872l84.272 84.272c23.216 23.216 54.080 36.016 86.928 36.016 32.48 0 63.040-12.512 86.192-35.264l127.76-112.304c23.248-23.232 36.032-54.112 36.032-86.944s-12.8-63.728-36.032-86.944l-647.92-647.936c-23.232-23.216-54.096-36.016-86.96-36.016z" />
<glyph unicode="&#xe03c;" glyph-name="status-fill" data-tags="status-fill" d="M5.264 448.048c0-283.024 228.96-512 511.904-512 283.024 0 512 228.96 512 512 0 282.928-228.96 511.904-512 511.904-282.944 0-511.904-228.96-511.904-511.904z" />
<glyph unicode="&#xe03d;" glyph-name="woo" data-tags="woo" d="M612.192 533.664c0 6.896-3.136 51.6-28 51.6-37.36 0-46.704-72.256-46.704-82.624 0-3.408 3.152-58.496 28.032-58.496 34.192 0.032 46.672 72.288 46.672 89.52zM814.384 533.664c0 6.896-3.152 51.6-28.032 51.6-37.28 0-46.608-72.256-46.608-82.624 0-3.408 3.072-58.496 27.952-58.496 34.192 0.032 46.688 72.288 46.688 89.52zM141.296 959.232c-68.224 0-123.504-55.488-123.504-123.92v-650.72c0-68.432 55.296-123.92 123.504-123.92h339.808l123.504-123.936v123.936h278.048c68.224 0 123.52 55.472 123.52 123.92v650.72c0 68.432-55.296 123.92-123.52 123.92h-741.36zM668.16 537.072c0-55.088-31.088-154.88-102.64-154.88-6.208 0-18.496 3.616-25.424 6.016-32.512 11.168-50.192 49.696-52.352 66.256 0 0-3.072 17.792-3.072 40.752 0 22.992 3.072 45.328 3.072 45.328 15.552 75.728 43.552 106.736 96.448 106.736 59.072 0.032 83.968-58.528 83.968-110.208zM486.496 657.6c0-3.392-43.552-141.168-43.552-213.424v-75.712c-2.592-12.080-4.16-24.144-21.824-24.144-46.608 0-88.88 151.472-92.016 161.84-6.208-6.896-62.24-161.84-96.448-161.84-24.864 0-43.552 113.648-46.608 123.936-9.344 55.072-26.048 157.52-26.048 164.416 0 20.672 1.152 38.736 26.048 38.736 6.208 0 21.6-6.064 23.712-17.168 11.648-62.032 16.688-120.512 29.168-185.968 1.856-2.928 1.504-7.008 4.56-10.432 3.152 10.288 66.928 168.784 94.96 168.784 22.544 0 30.4-44.592 33.536-61.824 6.208-20.656 13.088-55.216 22.416-82.752 0 13.776 12.48 203.12 65.392 203.12 18.592-0.032 26.704-6.928 26.704-27.568zM870.32 537.072c0-55.088-31.088-154.88-102.64-154.88-6.192 0-18.448 3.616-25.424 6.016-32.432 11.168-50.176 49.696-52.288 66.256 0 0-3.888 17.92-3.888 40.896s3.888 45.184 3.888 45.184c15.552 75.728 43.488 106.736 96.384 106.736 59.104 0.032 83.968-58.528 83.968-110.208z" />
<glyph unicode="&#xe600;" glyph-name="coupon" data-tags="coupon" d="M992.395 884.148h-960.79c-17.383 0-31.605-14.222-31.605-31.605v-244.938c88.494 0 159.605-71.111 159.605-159.605s-71.111-159.605-159.605-159.605v-244.938c0-17.383 14.222-31.605 31.605-31.605h959.21c17.383 0 31.605 14.222 31.605 31.605v244.938c-88.494 0-159.605 71.111-159.605 159.605s71.111 159.605 159.605 159.605v244.938c1.58 17.383-12.642 31.605-30.025 31.605v0z" />
<glyph unicode="&#xe601;" glyph-name="limit" data-tags="limit" d="M0 421.136v55.309h330.272l-110.617 110.617 26.864 55.309 192.79-192.79-192.79-192.79-26.864 55.309 110.617 110.617h-330.272zM693.728 421.136l110.617-110.617-26.864-55.309-192.79 192.79 192.79 192.79 26.864-55.309-110.617-110.617h330.272v-55.309h-330.272zM478.815 960h64.79v-1024h-64.79v1024z" />
<glyph unicode="&#xe602;" glyph-name="restricted" data-tags="restricted" d="M512 960c-282.864 0-512-229.136-512-512s229.136-512 512-512c282.864 0 512 229.136 512 512s-229.136 512-512 512zM709.531 757.728l-505.679-505.679c-37.926 58.469-58.469 128-58.469 197.531 0 202.272 164.346 366.617 366.617 366.617 71.111-1.58 139.062-22.123 197.531-58.469zM820.148 645.531c37.926-58.469 58.469-128 58.469-197.531 0-202.272-164.346-366.617-366.617-366.617-71.111 0-139.062 20.543-197.531 58.469l505.679 505.679z" />
<glyph unicode="&#xe603;" glyph-name="edit" data-tags="edit" d="M999.966 815.419l-120.121 120.121c-31.84 31.84-83.478 31.84-115.318 0l-678.648-678.632-85.832-320.339 320.339 85.832 0.948-0.948 678.648 678.648c31.84 31.84 31.84 83.478-0.016 115.318zM107.401 93.617l34.162 127.5 143.049-143.049-127.5-34.162-49.711 49.711zM827.891 617.176l-146.304 146.304 120.184 120.184 146.304-146.304-120.184-120.184z" />
<glyph unicode="&#xe604;" glyph-name="ccv" data-tags="ccv" d="M688.988 466.963h169.086v-72.691h-169.086v72.691zM894.42 133.531h-820.148v420.346h434.568c15.802 33.185 36.346 63.21 61.63 86.914h-496.198v120.099h820.148v-66.37c26.864-12.642 50.568-28.444 72.691-47.407v109.037c0 22.123-9.481 39.506-25.284 55.309-15.802 14.222-25.284 22.123-47.407 22.123h-802.765c-22.123 0-50.568-7.901-66.37-22.123s-23.704-31.605-23.704-53.728v-616.296c0-22.123 7.901-42.667 23.704-56.889s44.247-22.123 66.37-22.123h804.346c22.123 0 31.605 7.901 47.407 22.123s23.704 36.346 23.704 56.889v71.111c-22.123-18.963-45.827-34.765-72.691-47.407v-31.605zM774.321 678.716c-137.481 0-248.099-110.617-248.099-248.099s110.617-248.099 248.099-248.099 248.099 110.617 248.099 248.099-112.198 248.099-248.099 248.099zM584.691 430.617c0 104.296 85.333 189.63 189.63 189.63s189.63-85.333 189.63-189.63-85.333-189.63-189.63-189.63-189.63 85.333-189.63 189.63zM224.395 466.963v-72.691h259.16c-1.58 12.642-3.16 23.704-3.16 36.346s1.58 23.704 3.16 36.346h-259.16z" />
<glyph unicode="&#xe900;" glyph-name="storefront" data-tags="storefront" d="M794.864 503.309c-26.864 0-52.148 11.062-71.111 28.444-18.963-17.383-42.667-28.444-71.111-28.444-26.864 0-52.148 11.062-71.111 28.444-18.963-17.383-42.667-28.444-71.111-28.444-26.864 0-52.148 11.062-71.111 28.444-18.963-17.383-42.667-28.444-71.111-28.444-26.864 0-52.148 11.062-71.111 28.444-18.963-17.383-42.667-28.444-71.111-28.444s-52.148 11.062-71.111 28.444c-17.383-15.802-41.086-26.864-66.37-28.444v-372.938c0-25.284 20.543-47.407 47.407-47.407h230.716v1.58c18.963 0 41.086 22.123 41.086 41.086h1.58v162.765c25.284-14.222 58.469-22.123 94.815-22.123s69.531 7.901 94.815 22.123v-162.765h1.58c0-18.963 22.123-41.086 41.086-41.086v-1.58h230.716c25.284 0 47.407 20.543 47.407 47.407v374.519c-22.123 3.16-41.086 12.642-56.889 26.864-15.802-17.383-41.086-28.444-67.951-28.444zM319.21 294.716c0-17.383-14.222-31.605-31.605-31.605h-67.951c-17.383 0-31.605 14.222-31.605 31.605v67.951c0 17.383 14.222 31.605 31.605 31.605h67.951c17.383 0 31.605-14.222 31.605-31.605v-67.951zM828.049 294.716c0-17.383-14.222-31.605-31.605-31.605h-67.951c-17.383 0-31.605 14.222-31.605 31.605v67.951c0 17.383 14.222 31.605 31.605 31.605h67.951c17.383 0 31.605-14.222 31.605-31.605v-67.951zM993.975 813.037h-965.531c-15.802 0-30.025-12.642-30.025-30.025v-175.407c0-47.407 39.506-86.914 86.914-86.914 28.444 0 55.309 14.222 71.111 36.346 15.802-22.123 41.086-36.346 71.111-36.346s55.309 14.222 71.111 36.346c15.802-22.123 41.086-36.346 71.111-36.346 28.444 0 55.309 14.222 71.111 36.346 15.802-22.123 41.086-36.346 71.111-36.346s55.309 14.222 71.111 36.346c15.802-22.123 41.086-36.346 71.111-36.346 28.444 0 55.309 14.222 71.111 36.346 15.802-22.123 41.086-36.346 71.111-36.346 28.444 0 55.309 14.222 71.111 36.346 15.802-22.123 41.086-36.346 71.111-36.346 47.407 0 86.914 39.506 86.914 86.914v175.407c-1.58 17.383-14.222 30.025-31.605 30.025z" />
</font>
</defs>
</svg>
